#TITLE:Pander Stars;
#SUBTITLE:~ZeroKid re-edit~;
#ARTIST:Bust a groove;
#TITLETRANSLIT:;
#SUBTITLETRANSLIT:;
#ARTISTTRANSLIT:;
#CREDIT:;
#BANNER:Pander Stars.png;
#BACKGROUND:Pander Stars-bg.png;
#LYRICSPATH:;
#CDTITLE:zerokidtittle!!.png;
#MUSIC:Pander Stars.mp3;
#OFFSET:-0.460;
#SAMPLESTART:43.918;
#SAMPLELENGTH:12.000;
#SELECTABLE:YES;
#BPMS:0.000=160.020,97.000=160.010,97.500=160.020,98.250=160.010,98.500=160.020;
#STOPS:;
#BGCHANGES:;
// cache tags:
#FIRSTBEAT:27.000;
#LASTBEAT:422.750;
#SONGFILENAME:Songs/Chilean Keyboard Megapack 3/(zerokid) Pander stars/Pander Stars.sm;
#HASMUSIC:1;
#HASBANNER:1;
#MUSICLENGTH:163.900;
// end cache tags

//---------------dance-single - ----------------
#NOTES:
     dance-single:
     :
     Challenge:
     10:
     1.000,1.000,1.000,0.329,0.589,887.000,332.000,54.000,0.000,3.000:
0000
0000
0000
0000
,
0000
0000
0000
0000
,
0000
0000
0000
0000
,
0000
0000
0000
0000
,
0000
0000
0000
0000
,
0000
0000
0000
0000
,
0000
0000
0000
0022
,
2233
0000
0000
3300
0220
0000
0000
0330
0022
0000
0000
0033
1000
0100
1000
0000
,
0001
0010
0001
0000
0100
1000
0100
0000
0101
0000
1100
0000
0001
0010
0100
0000
,
1000
0100
0010
0000
0100
0010
0001
0000
0011
0000
1010
0000
1000
0010
1000
0000
,
0100
0001
0100
0000
0010
0001
0010
0000
1010
0000
1001
0000
0010
0100
0010
0000
,
0001
0010
0001
0000
0010
1000
0010
0000
0011
0000
0110
0000
0100
0010
0001
0000
,
0100
0010
0001
0000
1000
0100
1000
0000
1001
0000
1010
0000
0100
0001
0100
0000
,
0010
0001
0010
0000
0100
0010
0001
0000
0011
0000
0110
0000
0100
0010
0001
0000
,
0010
0100
1000
0000
0010
0100
1000
0000
1010
0000
0011
0000
0100
1000
0100
0000
,
0010
0001
0010
0000
0010
1000
0010
0000
1010
0000
0011
0000
0100
0010
0100
0000
,
0100
1000
0100
0000
0010
0001
0010
0000
1010
0000
0110
0000
0100
1000
0010
0000
,
0100
0001
0010
0000
0100
0001
1000
0000
0011
0000
1100
0000
0100
0010
0001
0000
,
0100
0010
0001
0000
0001
0010
0100
0000
1100
0000
1100
0000
0010
0100
0010
0000
,
0100
0010
0100
0000
1000
0001
1000
0000
0110
0000
1100
0000
0100
0001
0100
0000
,
0010
1000
0010
0000
0100
0001
0100
0000
1010
0000
0101
0000
0100
1000
0100
0000
,
0010
0001
0010
0000
0100
1000
0100
0000
0011
0000
0011
0000
0100
0001
0100
0000
,
0010
1000
0010
0000
0100
0001
0100
0000
1010
0000
1010
0000
0100
0001
0100
0000
,
0010
1000
0010
0000
0010
0100
0010
0000
0110
0000
0110
0000
1100
0000
0000
0000
,
2200
0000
0000
0000
0000
3300
0011
0000
0000
0000
1100
0000
0011
0000
0000
0000
,
2200
0000
3300
1100
0000
1100
0110
0000
,
2020
0000
3030
1100
0000
0110
0011
0000
,
2200
0000
3300
0110
0000
0011
0110
0000
,
2020
0000
3030
0011
0000
0011
0011
0000
,
2200
0000
3300
0110
0000
0110
1001
0000
,
0220
0000
0330
1100
0000
1100
1100
0000
,
0022
0000
0033
1100
0011
0011
1100
0100
,
0110
0010
0011
0001
0101
0100
1100
0100
,
0110
0100
1100
0100
0101
0001
0011
0001
,
1001
0010
1010
0100
0110
0001
0011
0001
,
0101
0010
0011
0010
0110
0100
0101
0001
,
1001
0100
1100
0100
0110
0010
1010
1000
,
1001
0000
0001
0000
0011
0000
0010
0000
0110
0000
0010
0000
1000
0100
1000
0100
,
1000
0100
1000
0100
1000
0100
1000
0100
1000
0100
1000
0100
0010
0001
0010
0100
,
1000
0100
0010
0001
0010
0001
0010
0100
1000
0100
0010
0001
1100
0000
0100
0000
,
0110
0000
0010
0000
0010
0100
0010
0000
1100
0000
0011
0000
1100
0000
0100
0000
,
0110
0000
0010
0000
0100
0010
0100
0000
1100
0000
0110
0000
1100
0000
0100
0000
,
0110
0000
0100
0000
1000
0001
1000
0000
0110
0000
1001
0000
0110
0000
0001
0000
,
0110
0000
1000
0000
0001
0100
0001
0000
1100
0000
0110
0000
0011
0000
0100
0000
,
0110
0000
0010
0000
0010
1000
0100
0000
0011
0000
0110
0000
1100
0000
0100
0000
,
0110
0000
0010
0000
0010
1000
0010
0000
0110
0000
0011
0000
1100
0000
0100
0000
,
0110
0000
0010
0000
1000
0100
1000
0000
0110
0000
1001
0000
0110
0000
0100
0000
,
0110
0000
0010
0000
0010
0001
0010
0000
0110
0000
0101
0000
1010
0000
0100
0000
,
0110
0000
0010
0000
0001
0010
0001
0000
1100
0000
1100
0000
0110
0000
0100
0000
,
0110
0000
0100
0000
1000
0100
1000
0000
0110
0000
1100
0000
0110
0000
0010
0000
,
0110
0000
1000
0000
1000
0100
1000
0000
0110
0000
0011
0000
0101
0000
0001
0000
,
0011
0000
0001
0000
0010
1000
0010
0000
0110
0000
0011
0000
1010
0000
1000
0000
,
1100
0000
0100
0000
0010
0001
0010
0000
0110
0000
0101
0000
0011
0000
0010
0000
,
0110
0000
0100
0000
1000
0010
1000
0000
0110
0000
0101
0000
0101
0000
0001
0000
,
0011
0000
0001
0000
1000
0100
1000
0000
0110
0000
0011
0000
2000
0100
0010
0000
,
3002
0010
0100
0000
0023
0100
1000
0000
0230
0010
0001
0000
1301
0010
0100
0000
,
1100
0000
0000
0000
0101
0000
0000
0000
0110
0000
0000
0000
1100
0010
0001
0000
,
0101
0000
0000
0000
0110
0000
0000
0000
1100
0000
0000
0000
0110
1000
0001
0000
,
0110
0000
0000
0000
0101
0000
0000
0000
0110
0000
0000
0000
1100
0010
0001
0000
,
0101
0000
0000
0000
0110
0000
0000
0000
0101
0000
0000
0000
1010
0100
0010
0000
,
0110
0000
0000
0000
0101
0000
0000
0000
1100
0000
0000
0000
0110
1000
0100
0000
,
0110
0000
0000
0000
0101
0000
0000
0000
0011
0000
0000
0000
0101
1000
0010
0000
,
0110
0000
0000
0000
0101
0000
0000
0000
1100
0000
0000
0000
0110
0001
1000
0000
,
0110
0000
0000
0000
0101
0000
0000
0000
0110
0000
0000
0000
0011
1000
0100
0000
,
0110
0000
0000
0000
1100
0000
0000
0000
0110
0000
0000
0000
0011
1000
0100
0000
,
0110
0000
0000
0000
0101
0000
0000
0000
1010
0000
0000
0000
0110
1000
0001
0000
,
0110
0000
0000
0000
0011
0000
0000
0000
0101
0000
0000
0000
0110
1000
0100
0000
,
0101
0000
0000
0000
1010
0000
0000
0000
0110
0000
0000
0000
0011
1000
0100
0000
,
1010
0000
0000
0000
0110
0000
0000
0000
0101
0000
0000
0000
0011
1000
0100
0000
,
0110
0000
0000
0000
0101
0000
0000
0000
1010
0000
0000
0000
0110
0001
0010
0000
,
0110
1100
0110
0110
,
1001
0000
0000
0000
0220
0000
0000
0000
0000
0000
0000
0000
1330
0001
1000
0000
,
0100
0010
0100
0000
0001
0010
0001
0000
1100
0000
0110
0000
1000
0100
1000
0000
,
0100
0010
0100
0000
0001
0010
0001
0000
1100
0000
0110
0000
0001
0010
0001
0000
,
0100
0010
0100
0000
1000
0100
1000
0000
1001
0000
0110
0000
0100
0010
0100
0000
,
0001
0010
0001
0000
1000
0100
1000
0000
0110
0000
0101
0000
1000
0100
1000
0000
,
0100
0010
0100
0000
1000
0001
1000
0000
0110
0000
0101
0000
0010
0100
0010
0000
,
1000
0001
1000
0000
1000
0100
1000
0000
0110
0000
0101
0000
0001
0010
0100
0000
,
1000
0100
0010
0000
0001
0010
0100
0000
0110
0000
1001
0000
0100
0010
0100
0000
,
1000
0100
0010
0000
0001
0010
1000
0000
0110
0000
0101
0000
1000
0100
0010
0001
,
0010
0100
1000
0000
0110
0000
0011
0000
0110
0000
1100
0000
0001
0010
0100
1000
,
0100
0010
0001
0000
1100
0000
0110
0000
0101
0000
0011
0000
0001
0010
0001
0010
,
0001
0010
0001
0000
0110
0000
1100
0000
0110
0000
0101
0000
0010
0100
0010
0100
,
0010
0100
0010
0000
1100
0000
0110
0000
0101
0000
0110
0000
1000
0100
1000
0100
,
1000
0100
1000
0000
0110
0000
0101
0000
0110
0000
1001
0000
0001
0100
0001
0100
,
0001
0100
0001
0000
1010
0000
0110
0000
0101
0000
0011
0000
1000
0100
0010
0100
,
1000
0100
0010
0000
0110
0000
0101
0000
0011
0000
1100
0000
0022
0033
0000
0000
,
2200
3300
0000
0000
0220
0330
0000
0000
0202
0303
0000
0000
1000
0010
0100
0010
,
0001
0010
0001
0000
0011
0000
1100
0000
0110
0000
0011
0000
0100
0010
0001
1000
,
0100
0010
0001
0000
0110
0000
1001
0000
0110
0000
1100
0000
0001
0010
0100
0010
,
0001
1000
0100
0000
0110
0000
0011
0000
0110
0000
1010
0000
0001
0010
0100
1000
,
0100
0010
0001
0000
0110
0000
0101
0000
0110
0000
1100
0000
0010
0100
0010
0100
,
0010
0100
0010
0000
1100
0000
0110
0000
0101
0000
0011
0000
1000
0010
1000
0010
,
1000
0010
1000
0000
0110
0000
0101
0000
0011
0000
1001
0000
0001
0010
0001
0010
,
0001
0010
0001
0000
1100
0000
0110
0000
0101
0000
1001
0000
2002
3003
0000
0000
,
0220
0330
0000
0000
2002
3003
0000
0000
0220
0330
0000
0000
0001
0010
0100
1000
,
0100
0010
0001
0000
0110
0000
0101
0000
0110
0000
1100
0000
0010
1000
0010
1000
,
0010
1000
0010
0000
0110
0000
1100
0000
0110
0000
0101
0000
0001
0100
0001
0100
,
0001
0100
0001
0000
0110
0000
1100
0000
0110
0000
0101
0000
0010
0100
0010
0100
,
0010
0100
0010
0000
1100
0000
0110
0000
0101
0000
0011
0000
0100
0001
0100
0001
,
0100
0001
0100
0000
1100
0000
0110
0000
0101
0000
0011
0000
0001
0010
0100
1000
,
0100
0010
0001
0000
1100
0000
0110
0000
0101
0000
0110
0000
0001
0010
0100
0010
,
0001
0010
0100
0000
1100
0000
0110
0000
0101
0000
0011
0000
2002
3003
0000
0000
,
0220
0330
0000
0000
0202
0303
0000
0000
2200
3300
0000
0000
0011
0000
1100
0000
,
0001
0010
0100
0010
0001
0000
1100
0000
0100
0010
0001
0010
0100
0000
1100
0000
,
0010
0100
0010
0100
0010
0000
0000
0000
0001
1000
0001
1000
0000
0000
0000
0000
;
